<?xml version="1.0" standalone="no"?>
<!DOCTYPE svg PUBLIC "-//W3C//DTD SVG 1.1//EN" "http://www.w3.org/Graphics/SVG/1.1/DTD/svg11.dtd" >
<svg xmlns="http://www.w3.org/2000/svg">
<metadata>Generated by IcoMoon</metadata>
<defs>
<font id="icomoon" horiz-adv-x="1024">
<font-face units-per-em="1024" ascent="960" descent="-64" />
<missing-glyph horiz-adv-x="1024" />
<glyph unicode="&#x20;" horiz-adv-x="512" d="" />
<glyph unicode="&#xe900;" glyph-name="document-stroce" d="M640-10.667h-256c-231.68 0-330.667 98.987-330.667 330.667v256c0 231.68 98.987 330.667 330.667 330.667h213.333c17.493 0 32-14.507 32-32s-14.507-32-32-32h-213.333c-196.693 0-266.667-69.973-266.667-266.667v-256c0-196.693 69.973-266.667 266.667-266.667h256c196.693 0 266.667 69.973 266.667 266.667v213.333c0 17.493 14.507 32 32 32s32-14.507 32-32v-213.333c0-231.68-98.987-330.667-330.667-330.667zM938.667 501.333h-170.667c-145.92 0-202.667 56.747-202.667 202.667v170.667c0 12.8 7.68 24.747 19.627 29.44 11.947 5.12 25.6 2.133 34.987-6.827l341.333-341.333c8.96-8.96 11.947-23.040 6.827-34.987s-16.64-19.627-29.44-19.627zM629.333 797.44v-93.44c0-110.080 28.587-138.667 138.667-138.667h93.44l-232.107 232.107z" />
<glyph unicode="&#xe901;" glyph-name="lamp-charge" d="M525.962 647.63c13.405-7.712 18.019-24.829 10.309-38.234l-39.922-69.397h42.531c16.226 0 35.013-5.982 45.032-23.597 9.938-17.47 5.63-36.534-2.427-50.389l-45.158-79.238c-7.656-13.435-24.755-18.12-38.19-10.464-13.435 7.658-18.12 24.755-10.462 38.192l39.605 69.496h-42.586c-16.229 0-34.765 6.109-44.774 23.429-10.030 17.352-6.035 36.478 2.203 50.611l45.608 79.282c7.71 13.405 24.829 18.019 38.232 10.309zM582.795 839.212c-201.541 43.887-379.435-107.991-379.435-301.612 0-111.155 73.726-218.534 165.256-273.85 8.39-5.070 13.517-14.16 13.517-23.963v-49.494c0-2.789-0.078-5.562-0.141-7.803-0.013-0.419-0.024-0.821-0.034-1.2-0.029-1.088-0.051-2.032-0.062-2.872 2.805-0.395 6.968-0.714 12.942-0.659l0.254 0.002h235.094c7.438 0 11.278 1.018 12.893 1.627 0.051 0.365 0.102 0.838 0.141 1.442 0.067 1.106 0.077 2.373 0.045 4.021-0.006 0.291-0.018 0.723-0.032 1.238-0.035 1.362-0.086 3.291-0.086 4.632v49.493c0 9.808 5.131 18.902 13.528 23.971 128.454 77.55 213.080 253.133 131.91 416.248v0.002c-40.019 80.427-117.304 139.188-205.79 158.778zM147.36 537.6c0 228.765 210.347 407.972 447.401 356.318l0.086-0.019c104.349-23.086 196.006-92.32 243.874-188.518 94.17-189.243 0.256-387.613-139.574-480.562v-34.099c0-0.115 0.014-0.366 0.037-0.736 0.24-4.018 1.323-22.195-6.57-37.331-11.16-21.398-33.741-30.893-62.427-30.893h-234.971c-23.858-0.202-49.35 3.576-62.274 25.323-5.781 9.73-6.762 19.781-6.992 26.286-0.12 3.402-0.043 6.742 0.029 9.426 0.013 0.514 0.027 1.006 0.040 1.482 0.062 2.232 0.114 4.086 0.114 6.016v34.099c-98.645 65.488-178.773 184.438-178.773 313.208zM653.688-5.603c-92.709 26.315-190.667 26.315-283.376 0-14.877-4.222-30.358 4.414-34.581 19.291-4.222 14.875 4.413 30.358 19.29 34.581 102.706 29.152 211.253 29.152 313.958 0 14.875-4.222 23.512-19.706 19.29-34.581-4.222-14.877-19.706-23.514-34.581-19.291z" />
<glyph unicode="&#xe903;" glyph-name="map" d="M364.321 865.531c20.152 0.515 43.007-2.813 63.006-12.623l0.294-0.144 224.354-111.965c2.253-1.146 8.461-2.948 17.453-2.685 8.954 0.262 15.27 2.414 17.658 3.766 0.006 0.003 0-0.002 0 0l100.141 57.1c0.013 0.010-0.019-0.010 0 0 44.006 25.208 95.027 33.134 137.997 8.186 42.97-24.95 61.446-73.176 61.446-124.070v-415.144c0-24.288-8.384-47.744-19.29-66.426-10.912-18.714-27.072-37.325-47.667-49.306l-0.282-0.166-184.877-105.882c-19.578-11.136-42.394-15.616-62.502-16.128-20.147-0.512-43.006 2.816-63.005 12.627l-0.36 0.173-224.289 112.358c-2.25 1.146-8.46 2.95-17.45 2.688-8.953-0.262-15.274-2.413-17.661-3.763-0.004-0.006 0.004 0 0 0l-100.137-57.101c-0.016-0.013 0.015 0.006 0 0-44.012-25.21-95.030-33.139-137.999-8.186-42.97 24.947-61.444 73.178-61.444 124.070v415.144c0 23.978 8.217 47.299 19.095 66.001 10.897 18.734 27.158 37.468 48.164 49.477 0.006 0.003-0.006-0.004 0 0l184.854 105.875c19.576 11.132 42.392 15.612 62.5 16.125zM349.273 765.954c-0.012-0.006 0.012 0.007 0 0l-184.617-105.739c-2.878-1.645-8.198-6.396-12.872-14.429-4.694-8.070-6.078-14.83-6.078-17.732v-415.144c0-30.176 10.326-39.123 13.649-41.050 3.309-1.926 16.104-6.426 42.055 8.454l0.093 0.051 100.267 57.171c19.383 11.021 42.118 15.718 62.376 16.307 20.182 0.595 43.34-2.707 63.663-13.018l223.628-112.026c2.682-1.274 9.21-3.021 18.163-2.79 9.062 0.23 15.245 2.342 17.459 3.59 0.013 0.006-0.013-0.013 0 0l184.461 105.645c2.893 1.722 8.218 6.56 12.941 14.65 4.774 8.192 6.208 15.034 6.208 18.054v415.144c0 30.173-10.33 39.121-13.651 41.050-3.309 1.922-16.102 6.42-42.054-8.454l-100.358-57.226c-19.386-11.022-42.118-15.717-62.374-16.309-20.173-0.589-43.314 2.707-63.628 13l-223.642 111.608c-2.671 1.279-9.211 3.030-18.188 2.801-9.069-0.232-15.284-2.364-17.5-3.608zM365.227 837.333c26.509 0 48-21.491 48-48v-554.664c0-26.515-21.491-48-48-48s-48 21.485-48 48v554.664c0 26.509 21.49 48 48 48zM671.149 725.547c26.509 0 48-21.491 48-48v-570.878c0-26.509-21.491-48-48-48s-48.002 21.491-48.002 48v570.878c0 26.509 21.493 48 48.002 48z" />
<glyph unicode="&#xe904;" glyph-name="arrow-right" horiz-adv-x="964" d="M325.853 797.987c17.642 17.642 46.247 17.642 63.889 0l261.823-261.823c48.562-48.563 48.562-127.765 0-176.328l-261.823-261.821c-17.642-17.643-46.247-17.643-63.889 0s-17.642 46.243 0 63.886l261.823 261.825c13.278 13.278 13.278 35.271 0 48.55l-261.823 261.823c-17.642 17.642-17.642 46.247 0 63.889z" />
<glyph unicode="&#xe905;" glyph-name="briefcase" d="M899.84 662.186c-36.268 40.107-96.852 60.16-184.748 60.16h-10.24v1.707c0 71.68 0 160.427-160.424 160.427h-64.856c-160.425 0-160.425-89.174-160.425-160.427v-2.133h-10.24c-88.32 0-148.48-20.054-184.747-60.16-42.24-46.934-40.96-110.080-36.693-153.172l0.426-2.988 3.442-36.144c0.522-5.478 3.472-10.423 8.073-13.44 10.041-6.587 28.15-18.297 38.831-24.229 5.973-3.84 12.373-7.256 18.773-10.668 72.96-40.108 153.174-66.988 234.667-80.212 3.84-40.108 21.332-87.040 114.772-87.040s111.788 46.504 114.776 87.892c87.040 14.080 171.092 44.372 247.040 88.748 2.56 1.28 4.264 2.56 6.4 3.84 17.306 9.783 35.277 21.888 51.573 33.682 4.129 2.988 6.773 7.596 7.336 12.661l0.823 7.417 2.132 20.052c0.428 2.56 0.428 4.692 0.856 7.68 3.412 43.092 2.56 101.973-37.548 146.346zM558.508 369.92c0-45.228 0-52.052-52.48-52.052s-52.48 8.104-52.48 51.624v53.76h104.96v-53.332zM380.16 722.346v1.707c0 72.533 0 99.413 99.412 99.413h64.856c99.412 0 99.412-27.306 99.412-99.413v-2.133h-263.68v0.426zM903.837 359.687l-15.795-174.014c-4.341-41.19-14.672-78.958-43.352-106.858-28.599-27.82-78.789-49.009-170.13-49.009h-325.12c-91.338 0-141.539 21.189-170.141 48.965-28.679 27.853-39.005 65.518-43.341 106.485l-15.008 165.091c-0.002 0.022-0.003 0.044-0.004 0.059 0.019 0.022 0.051 0.055 0.099 0.088 0.066 0.048 0.12 0.069 0.148 0.077 0.019-0.004 0.049-0.015 0.088-0.033 47.359-21.533 144.269-64.106 203.309-79.243 0.301-0.077 0.918-0.395 1.349-1.346 29.51-65.013 94.174-97.086 180.512-97.086 85.771 0 150.996 33.393 180.506 98.355 0.428 0.94 1.053 1.28 1.386 1.364 62.724 16.143 165.709 63.675 215.113 87.3 0.048 0.022 0.077 0.033 0.099 0.040 0.033-0.007 0.095-0.029 0.179-0.088 0.051-0.037 0.084-0.069 0.106-0.091 0-0.015 0-0.033-0.004-0.055z" />
<glyph unicode="&#xe906;" glyph-name="calendar-2" d="M341.334 922.666c26.509 0 48-21.49 48-48v-128c0-26.509-21.491-48-48-48s-48 21.491-48 48v128c0 26.51 21.49 48 48 48zM682.669 922.666c26.509 0 48-21.49 48-48v-128c0-26.509-21.491-48-48-48s-48.003 21.491-48.003 48v128c0 26.51 21.494 48 48.003 48zM101.334 572.16c0 26.51 21.49 48 48 48h725.335c26.509 0 48-21.49 48-48s-21.491-48-48-48h-725.335c-26.51 0-48 21.491-48 48zM213.841 719.338c-23.673-25.494-37.841-65.363-37.841-122.005v-362.664c0-56.646 14.168-96.512 37.841-122.010 23.075-24.851 61.975-43.328 127.492-43.328h341.336c65.517 0 104.416 18.477 127.488 43.328 23.674 25.498 37.843 65.363 37.843 122.010v362.664c0 56.642-14.17 96.511-37.843 122.005-23.072 24.851-61.971 43.328-127.488 43.328h-341.336c-65.517 0-104.417-18.477-127.492-43.328zM143.492 784.662c46.258 49.816 114.026 74.004 197.841 74.004h341.336c83.814 0 151.578-24.188 197.837-74.004 45.664-49.172 63.494-115.971 63.494-187.329v-362.664c0-71.36-17.83-138.157-63.494-187.328-46.259-49.818-114.022-74.010-197.837-74.010h-341.336c-83.815 0-151.583 24.192-197.841 74.010-45.66 49.171-63.492 115.968-63.492 187.328v362.664c0 71.358 17.832 138.156 63.492 187.329zM447.807 375.466c0 35.347 28.653 64 64 64h0.383c35.347 0 64-28.653 64-64s-28.653-63.997-64-63.997h-0.383c-35.347 0-64 28.652-64 63.997zM289.891 375.466c0 35.347 28.654 64 64 64h0.383c35.346 0 64-28.653 64-64s-28.654-63.997-64-63.997h-0.383c-35.346 0-64 28.652-64 63.997zM289.891 247.469c0 35.341 28.654 64 64 64h0.383c35.346 0 64-28.659 64-64 0-35.347-28.654-64-64-64h-0.383c-35.346 0-64 28.653-64 64z" />
<glyph unicode="&#xe907;" glyph-name="call" d="M238.507 826.666c-16.733 0-35.012-6.566-55.074-26.314l-0.364-0.358-0.371-0.35c-17.798-16.79-29.842-34.859-37.338-53.912l-0.1-0.253c-7.821-19.555-11.927-41.195-11.927-64.52 0-36.867 8.491-77.012 26.93-120.827 18.837-44.327 45.062-89.819 78.303-136.047 33.871-46.509 71.887-91.084 114.095-133.718 42.646-42.221 87.261-80.275 134.273-114.618 46.017-33.498 91.938-59.776 137.321-79.11 44.25-18.854 84.346-27.309 120.276-27.309 23.776 0 45.21 4.384 64.742 12.525l0.256 0.109c18.662 7.648 35.949 19.802 52.627 38.182 9.011 9.946 15.814 20.442 21.158 31.763 4.275 9.050 6.074 17.85 6.074 26.010 0 4.352-0.794 8.691-3.014 14.483-0.723 1.434-2.266 3.635-6.605 6.637l-0.467 0.326-140.806 99.974c-8.698 5.888-15.392 9.485-20.672 11.648-4.41 1.805-6.778 1.971-7.853 1.971-0.819 0-2.112 0-5.331-1.965l-1.357-0.819-1.402-0.73c-3.93-2.054-10.253-6.554-18.982-15.283l-0.224-0.224-32.339-31.917c-13.188-13.114-30.705-21.171-51.296-21.171-7.558 0-17.092 0.851-27.521 4.768l-1.036 0.384-1.018 0.435c-1.96 0.845-3.777 1.677-4.924 2.202l-0.327 0.154c-1.105 0.506-1.429 0.646-1.426 0.646l-2.295 0.915-2.259 1.197c-18.696 9.894-39.98 25.056-63.587 45.030l-0.062 0.051c-23.861 20.262-46.97 42.064-70.395 65.056l-0.324 0.317-0.317 0.323c-23.045 23.488-44.212 46.868-63.9 69.619l-0.349 0.403c-19.622 23.19-35.226 44.397-45.174 62.636l-2.047 3.752-1.196 3.588c-0.067 0.161-0.184 0.445-0.372 0.89-0.044 0.104-0.093 0.219-0.146 0.344-0.527 1.242-1.496 3.524-2.458 6.091l-0.96 2.56-0.663 2.652c-1.642 6.565-2.713 13.494-2.713 21.455 0 18.292 6.326 36.227 20.477 50.597l32.835 34.117c8.065 8.065 13.181 14.9 16.047 19.971l0.382 0.676 0.403 0.662c1.852 3.043 1.96 4.737 1.962 5.325 0 0.003 0-0.004 0 0zM375.68 647.669c-0.001 0-0.017 0.614-0.308 1.869-0.308 1.332-0.863 3.112-1.784 5.26l-0.314 0.732c-2.136 5.222-5.647 11.745-11.588 19.997l-0.195 0.271-99.306 139.971c-2.403 3.471-5.271 5.807-9.233 7.635l-0.659 0.304c-3.774 1.812-8.561 2.958-13.786 2.958zM116.454 869.128c34.478 33.792 75.804 53.539 122.052 53.539 18.552 0 37.535-3.929 55.003-12.25 18.014-8.377 34.577-21.279 47.432-39.746l98.755-139.193c9.288-12.918 16.778-25.861 22.288-39.234 5.629-13.242 9.696-28.559 9.696-44.564 0-19.629-5.716-38.171-15.546-54.568-8.111-14.175-18.931-27.478-31.020-39.613l-21.049-21.88c6.154-9.393 15.398-21.727 28.355-37.052 18.567-21.449 38.2-43.117 59.341-64.682 22.522-22.097 43.677-41.996 64.93-60.042 15.462-13.081 27.952-22.207 37.581-28.268l20.862 20.588c12.203 12.189 25.852 23.531 40.943 31.652 16.051 9.489 33.952 15.146 53.894 15.146 15.142 0 29.843-3.245 44.205-9.121 13.414-5.489 26.234-12.908 38.682-21.374l0.403-0.273 141.414-100.401c17.152-11.93 31.091-27.418 39.821-47.258l0.326-0.749 0.307-0.762c6.016-15.046 10.259-31.808 10.259-51.104 0-22.56-5.030-45.338-15.264-67.002-9.158-19.392-21.126-37.907-36.851-55.258-25.101-27.667-53.875-48.794-87.213-62.477-31.629-13.158-65.619-19.853-101.53-19.853-51.11 0-104.019 12.032-157.907 34.989-52.745 22.477-104.952 52.518-156.211 89.837l-0.060 0.045c-51.045 37.28-99.373 78.528-145.411 124.122l-0.33 0.326c-45.586 46.029-86.847 94.374-123.738 145.044l-0.163 0.223c-36.676 50.988-66.733 102.715-88.839 154.756l-0.059 0.14c-22.501 53.44-34.482 106.285-34.482 158.147 0 34.655 6.119 68.438 18.743 100.047 12.928 32.802 33.17 62.36 60.378 88.121z" />
<glyph unicode="&#xe908;" glyph-name="call2" d="M471.466 322.135l-78.933-78.935c-16.64-16.64-43.094-16.64-60.16-0.425-4.694 4.69-9.387 8.96-14.080 13.65-43.947 44.375-83.627 90.88-119.040 139.52-34.987 48.64-63.147 97.282-83.627 145.495-20.053 48.64-30.293 95.147-30.293 139.521 0 29.013 5.12 56.746 15.36 82.346 10.24 26.026 26.453 49.92 49.066 71.253 27.306 26.88 57.174 40.107 88.746 40.107 11.947 0 23.894-2.56 34.56-7.68 11.094-5.12 20.907-12.8 28.587-23.894l98.986-139.52c7.68-10.666 13.226-20.48 17.066-29.866 3.84-8.96 5.974-17.92 5.974-26.027 0-10.24-2.986-20.479-8.96-30.293-5.546-9.814-13.654-20.054-23.894-30.294l-32.426-33.706c-4.694-4.694-6.826-10.24-6.826-17.067 0-3.413 0.426-6.399 1.28-9.813 1.28-3.414 2.56-5.974 3.413-8.534 7.68-14.080 20.907-32.426 39.68-54.614 19.2-22.184 39.68-44.799 61.867-67.415 4.266-4.265 8.96-8.53 13.226-12.8 17.066-16.64 17.494-43.945 0.426-61.010zM937.385 177.92c0-11.945-2.13-24.32-6.4-36.265-1.28-3.415-2.56-6.83-4.265-10.24-7.255-15.36-16.64-29.87-29.015-43.52-20.905-23.040-43.945-39.68-69.97-50.35-0.43 0-0.855-0.425-1.28-0.425-25.175-10.24-52.48-15.785-81.92-15.785-43.52 0-90.030 10.24-139.095 31.145s-98.134 49.065-146.774 84.48c-16.64 12.375-33.28 24.745-49.066 37.975l139.52 139.52c11.945-8.96 22.615-15.79 31.575-20.48 2.13-0.855 4.69-2.135 7.68-3.415 3.41-1.28 6.825-1.705 10.665-1.705 7.255 0 12.8 2.56 17.495 7.25l32.425 32c10.665 10.67 20.905 18.775 30.72 23.895 9.815 5.975 19.625 8.96 30.295 8.96 8.105 0 16.64-1.705 26.025-5.545s19.2-9.39 29.865-16.64l141.23-100.27c11.090-7.68 18.77-16.64 23.465-27.305 4.265-10.665 6.825-21.335 6.825-33.28z" />
<glyph unicode="&#xe90a;" glyph-name="external-link" d="M128 576c0 70.692 57.308 128 128 128h213.333c23.565 0 42.667-19.103 42.667-42.667s-19.102-42.667-42.667-42.667h-213.333c-23.564 0-42.667-19.103-42.667-42.667v-384c0-23.565 19.103-42.667 42.667-42.667h384c23.565 0 42.667 19.102 42.667 42.667v213.333c0 23.565 19.102 42.667 42.667 42.667s42.667-19.102 42.667-42.667v-213.333c0-70.694-57.306-128-128-128h-384c-70.692 0-128 57.306-128 128v384zM883.503 819.503c16.661-16.663 16.661-43.677 0-60.34l-426.667-426.666c-16.661-16.661-43.677-16.661-60.34 0s-16.662 43.678 0 60.339l426.667 426.667c16.661 16.662 43.678 16.662 60.339 0zM597.333 789.333c0 23.564 19.102 42.667 42.667 42.667h213.333c23.565 0 42.667-19.103 42.667-42.667v-213.333c0-23.564-19.102-42.667-42.667-42.667s-42.667 19.103-42.667 42.667v170.667h-170.667c-23.565 0-42.667 19.103-42.667 42.667z" />
<glyph unicode="&#xe90b;" glyph-name="eye" d="M512 562.347c-63.272 0-114.346-51.075-114.346-114.347s51.074-114.345 114.346-114.345c63.273 0 114.345 51.072 114.345 114.345s-51.072 114.347-114.345 114.347zM320.854 448c0 105.688 85.459 191.147 191.146 191.147s191.145-85.459 191.145-191.147c0-105.687-85.458-191.145-191.145-191.145s-191.146 85.458-191.146 191.145zM90.922 579.569c102.874 161.708 254.184 260.111 421.078 260.111 166.886 0 318.188-98.393 421.064-260.086zM933.094 579.543c24.064-37.726 34.801-85.693 34.801-131.33 0-45.658-10.747-93.648-34.831-131.382-102.876-161.69-254.177-260.086-421.064-260.086-166.902 0-318.22 98.417-421.093 260.137-24.063 37.729-34.8 85.693-34.8 131.331 0 45.647 10.742 93.626 34.816 131.356zM512 762.879c-134.324 0-263.754-79.080-356.293-224.557l-0.032-0.051c-14.315-22.426-22.769-55.076-22.769-90.059s8.454-67.633 22.769-90.059l0.032-0.051c92.539-145.475 221.969-224.558 356.293-224.558 134.323 0 263.752 79.084 356.291 224.558l0.036 0.051c14.316 22.426 22.769 55.076 22.769 90.059s-8.453 67.633-22.769 90.059l-0.036 0.051c-92.539 145.477-221.967 224.557-356.291 224.557z" />
<glyph unicode="&#xe90c;" glyph-name="global" d="M512 836.266c-214.434 0-388.266-173.833-388.266-388.266 0-214.436 173.833-388.265 388.266-388.265 214.436 0 388.265 173.829 388.265 388.265 0 214.434-173.829 388.266-388.265 388.266zM46.933 448c0 256.849 208.217 465.067 465.067 465.067s465.065-208.217 465.065-465.067c0-256.85-208.215-465.065-465.065-465.065s-465.067 208.215-465.067 465.065zM302.934 832c0 21.208 17.192 38.4 38.4 38.4h42.666c12.347 0 23.941-5.937 31.157-15.955s9.177-22.896 5.266-34.607c-80.564-241.279-80.564-502.398 0-743.678 3.911-11.709 1.951-24.586-5.266-34.606-7.217-10.015-18.81-15.954-31.157-15.954h-42.666c-21.208 0-38.4 17.193-38.4 38.4 0 18.058 12.464 33.203 29.258 37.304-65.321 226.458-65.321 466.935 0 693.391-16.794 4.101-29.258 19.248-29.258 37.305zM627.84 868.423c20.116 6.717 41.866-4.145 48.584-24.261 85.837-257.067 85.837-535.257 0-792.322-6.717-20.116-28.467-30.981-48.584-24.264s-30.981 28.467-24.264 48.584c80.563 241.28 80.563 502.398 0 743.678-6.717 20.116 4.147 41.868 24.264 48.585zM105.555 351.155c10.018 7.219 22.896 9.18 34.607 5.268 241.279-80.563 502.398-80.563 743.678 0 11.709 3.912 24.586 1.951 34.606-5.268 10.015-7.214 15.954-18.806 15.954-31.155v-42.665c0-21.207-17.193-38.4-38.4-38.4-18.058 0-33.203 12.462-37.304 29.256-226.458-65.321-466.935-65.321-693.391 0-4.101-16.794-19.248-29.256-37.305-29.256-21.208 0-38.4 17.193-38.4 38.4v42.665c0 12.349 5.937 23.941 15.955 31.155zM883.84 539.577c-241.28 80.564-502.398 80.564-743.678 0-20.116-6.717-41.868 4.145-48.585 24.261s4.145 41.868 24.261 48.585c257.067 85.836 535.257 85.836 792.322 0 20.116-6.717 30.981-28.469 24.264-48.585s-28.467-30.978-48.584-24.261z" />
<glyph unicode="&#xe90d;" glyph-name="sent-fast" d="M403.35 778.226l479.176-239.442c74.854-37.404 74.854-144.164 0-181.57l-479.176-239.441c-85.225-42.586-176.926 44.988-138.227 132.006l69.818 156.996c1.347 3.029 2.538 6.11 3.575 9.225h173.484c17.673 0 32 14.327 32 32s-14.327 32-32 32h-173.484c-1.036 3.115-2.228 6.195-3.575 9.225l-69.818 156.994c-38.699 87.019 53.003 174.594 138.227 132.007zM53.333 533.333c0 17.673 14.327 32 32 32h85.333c17.673 0 32-14.327 32-32s-14.327-32-32-32h-85.333c-17.673 0-32 14.327-32 32zM85.333 394.667c-17.673 0-32-14.327-32-32s14.327-32 32-32h85.333c17.673 0 32 14.327 32 32s-14.327 32-32 32h-85.333z" />
<glyph unicode="&#xe90e;" glyph-name="heart1" d="M322.56 795.152c-112.841 0-204.645-91.926-204.645-205.925 0-138.495 63.937-249.478 144.441-331.962 80.9-82.888 176.526-134.799 233.716-154.322l0.318-0.11c2.681-0.948 8.339-1.983 15.609-1.983s12.928 1.035 15.609 1.983l0.318 0.11c57.189 19.523 152.816 71.434 233.716 154.322 80.505 82.484 144.442 193.467 144.442 331.962 0 113.999-91.804 205.925-204.645 205.925-66.461 0-126.060-32.296-163.283-82.418-6.146-8.276-15.848-13.156-26.157-13.156s-20.011 4.88-26.157 13.156c-37.244 50.15-96.427 82.418-163.283 82.418zM52.751 589.226c0 149.683 120.675 271.089 269.809 271.089 74.054 0 140.925-30.018 189.455-78.467 48.633 48.464 115.751 78.467 189.425 78.467 149.133 0 269.809-121.406 269.809-271.089 0-160.17-74.303-286.629-162.972-377.476-88.211-90.382-192.605-147.679-259.154-170.429-11.783-4.128-25.252-5.636-37.123-5.636s-25.341 1.508-37.125 5.636c-66.549 22.751-170.941 80.049-259.152 170.429-88.668 90.847-162.972 217.306-162.972 377.476z" />
<glyph unicode="&#xe90f;" glyph-name="home-2" d="M594.591 819.994l0.015-0.010 245.755-171.943c0-0.001 0-0.002 0.005-0.003 19.328-13.532 37.873-35.923 51.61-62.232 13.732-26.311 21.519-54.355 21.519-78.072v-289.278c0-94.664-76.861-171.52-171.52-171.52h-459.949c-94.589 0-171.52 77.21-171.52 171.945v294.4c0 21.987 7.038 48.607 19.554 74.025 12.508 25.405 29.397 47.394 46.965 61.096l0.005 0.005 213.69 166.772c0.011 0.009 0.023 0.018 0.034 0.027 55.561 43.022 146.052 45.276 203.836 4.79zM512 134.4c31.631 0 57.6 25.969 57.6 57.6v128c0 31.631-25.969 57.6-57.6 57.6s-57.6-25.969-57.6-57.6v-128c0-31.631 25.968-57.6 57.6-57.6z" />
<glyph unicode="&#xe910;" glyph-name="accessibility" d="M597.332 746.667c0-47.129-38.205-85.334-85.332-85.334-47.13 0-85.332 38.205-85.332 85.334s38.203 85.333 85.332 85.333c47.127 0 85.332-38.205 85.332-85.333zM188.478 624.796c3.385 13.727 17.257 22.111 30.984 18.726 114.644-28.268 202.019-41.964 289.699-41.923 87.729 0.041 177.042 13.832 295.593 41.974 13.757 3.267 27.556-5.238 30.82-18.995 3.267-13.755-5.238-27.553-18.995-30.82-120.394-28.58-214.044-43.315-307.395-43.359-93.402-0.044-185.221 14.623-301.979 43.41-13.727 3.387-22.112 17.257-18.727 30.986zM426.668 362.668v213.332h170.665v-213.332h-170.665zM472.509 473.403c14.029-1.754 23.98-14.548 22.226-28.577l-42.668-341.335c-1.754-14.029-14.546-23.98-28.577-22.226-14.029 1.754-23.98 14.548-22.226 28.577l42.668 341.332c1.754 14.031 14.546 23.982 28.577 22.228zM551.491 473.403c14.031 1.754 26.824-8.197 28.577-22.228l42.668-341.332c1.754-14.029-8.197-26.824-22.226-28.577-14.031-1.754-26.824 8.197-28.577 22.226l-42.668 341.335c-1.754 14.029 8.197 26.824 22.226 28.577z" />
<glyph unicode="&#xe911;" glyph-name="audio-play" d="M745.077 405.742l-403.977-230.846c-40.156-22.947-90.12 6.048-90.12 52.299v461.688c0 46.25 49.964 75.245 90.12 52.299l403.977-230.845c40.469-23.124 40.469-81.474 0-104.596z" />
<glyph unicode="&#xe912;" glyph-name="import" d="M663.183 583.561c1.818 21.129 20.424 36.783 41.549 34.963 82.534-7.107 148.388-32.602 192.287-86.703 43.039-53.042 59.141-126.599 59.141-216.517v-5.545c0-99.159-19.62-178.565-73.272-232.218-53.658-53.658-133.064-73.277-232.223-73.277h-277.758c-99.158 0-178.566 19.62-232.22 73.277-53.654 53.652-73.273 133.059-73.273 232.218v5.545c0 89.267 15.887 162.37 58.228 215.297 43.229 54.036 108.134 79.886 189.515 87.473 21.116 1.969 39.83-13.554 41.798-34.67s-13.554-39.83-34.67-41.799c-69.66-6.494-111.208-27.15-136.672-58.98-26.352-32.941-41.398-85.062-41.398-167.32v-5.545c0-91.561 18.566-145.7 50.779-177.915 32.213-32.21 86.352-50.78 177.914-50.78h277.758c91.566 0 145.705 18.57 177.915 50.78 32.215 32.215 50.78 86.354 50.78 177.915v5.545c0 82.888-15.258 135.195-41.979 168.126-25.861 31.871-68.168 52.457-139.233 58.577-21.13 1.819-36.787 20.423-34.964 41.553zM512 913.067c21.207 0 38.4-17.192 38.4-38.4v-549.547c0-21.207-17.193-38.4-38.4-38.4s-38.4 17.193-38.4 38.4v549.547c0 21.208 17.192 38.4 38.4 38.4zM341.914 447.421c14.996 14.995 39.309 14.995 54.306 0l115.78-115.784 115.779 115.784c14.996 14.995 39.311 14.995 54.308 0s14.996-39.311 0-54.308l-142.935-142.935c-14.996-14.991-39.308-14.991-54.304 0l-142.933 142.935c-14.996 14.996-14.996 39.311 0 54.308z" />
<glyph unicode="&#xe913;" glyph-name="instagram" d="M512 665.6c70.4 0 80 0 108.8 0 25.6 0 38.4-6.4 48-9.6 12.8-6.4 22.4-9.6 32-19.2s16-19.2 19.2-32c3.2-9.6 6.4-22.4 9.6-48 0-28.8 0-35.2 0-108.8s0-80 0-108.8c0-25.6-6.4-38.4-9.6-48-6.4-12.8-9.6-22.4-19.2-32s-19.2-16-32-19.2c-9.6-3.2-22.4-6.4-48-9.6-28.8 0-35.2 0-108.8 0s-80 0-108.8 0c-25.6 0-38.4 6.4-48 9.6-12.8 6.4-22.4 9.6-32 19.2s-16 19.2-19.2 32c-3.2 9.6-6.4 22.4-9.6 48 0 28.8 0 35.2 0 108.8s0 80 0 108.8c0 25.6 6.4 38.4 9.6 48 6.4 12.8 9.6 22.4 19.2 32s19.2 16 32 19.2c9.6 3.2 22.4 6.4 48 9.6 28.8 0 38.4 0 108.8 0zM512 713.6c-73.6 0-80 0-108.8 0s-48-6.4-64-12.8c-16-6.4-32-16-48-32s-22.4-28.8-32-48c-6.4-16-9.6-35.2-12.8-64 0-28.8 0-38.4 0-108.8 0-73.6 0-80 0-108.8s6.4-48 12.8-64c6.4-16 16-32 32-48s28.8-22.4 48-32c16-6.4 35.2-9.6 64-12.8 28.8 0 38.4 0 108.8 0s80 0 108.8 0c28.8 0 48 6.4 64 12.8s32 16 48 32c16 16 22.4 28.8 32 48 6.4 16 9.6 35.2 12.8 64 0 28.8 0 38.4 0 108.8s0 80 0 108.8c0 28.8-6.4 48-12.8 64s-16 32-32 48c-16 16-28.8 22.4-48 32-16 6.4-35.2 9.6-64 12.8-28.8 0-35.2 0-108.8 0zM512 585.6c-76.8 0-137.6-60.8-137.6-137.6s60.8-137.6 137.6-137.6c76.8 0 137.6 60.8 137.6 137.6s-60.8 137.6-137.6 137.6zM512 358.4c-48 0-89.6 38.4-89.6 89.6 0 48 38.4 89.6 89.6 89.6 48 0 89.6-38.4 89.6-89.6 0-48-41.6-89.6-89.6-89.6zM652.8 556.8c17.674 0 32 14.326 32 32s-14.326 32-32 32c-17.674 0-32-14.326-32-32s14.326-32 32-32z" />
<glyph unicode="&#xe914;" glyph-name="link" d="M704 181.335h-64.425c-17.495 0-32 14.505-32 32 0 17.49 14.505 32 32 32h64.425c111.785 0 202.665 90.88 202.665 202.665 0 111.786-90.88 202.666-202.665 202.666h-64c-17.495 0-32 14.506-32 32s14.080 32 32 32h64c147.2 0 266.665-119.466 266.665-266.666s-119.465-266.665-266.665-266.665zM384 181.335h-64c-147.2 0-266.666 119.465-266.666 266.665s119.466 266.666 266.666 266.666h64c17.494 0 32-14.507 32-32s-14.506-32-32-32h-64c-111.786 0-202.666-90.88-202.666-202.666s90.88-202.665 202.666-202.665h64c17.494 0 32-14.51 32-32 0-17.495-14.506-32-32-32zM682.665 416h-341.331c-17.494 0-32 14.505-32 32s14.506 32 32 32h341.331c17.495 0 32-14.506 32-32s-14.505-32-32-32z" />
<glyph unicode="&#xe915;" glyph-name="location" d="M512 602.027c-45.243 0-81.92-36.677-81.92-81.92s36.677-81.92 81.92-81.92c45.243 0 81.92 36.677 81.92 81.92s-36.677 81.92-81.92 81.92zM327.68 520.107c0 101.797 82.523 184.32 184.32 184.32s184.32-82.523 184.32-184.32c0-101.797-82.523-184.32-184.32-184.32s-184.32 82.523-184.32 184.32zM512.125 823.466c138.576-0.094 271.915-80.279 307.485-237.436v-0.002c42.73-188.746-73.882-354.474-189.473-465.475l-0.094-0.088c-65.862-63.568-170.149-63.7-236.572 0.059-115.166 111.002-231.804 277.14-189.087 465.903 35.76 157.143 169.179 237.132 307.741 237.038zM919.486 608.636c-48.062 212.336-230.241 317.111-407.292 317.231-177.057 0.12-359.363-104.416-407.666-316.75l-0.012-0.053c-55.395-244.702 97.589-446.329 217.927-562.304l0.064-0.059c105.92-101.727 272.903-101.881 378.555-0.007 120.784 115.99 273.821 317.195 218.423 561.941z" />
<glyph unicode="&#xe916;" glyph-name="menu" d="M96 661.333c0 17.673 14.327 32 32 32h768c17.673 0 32-14.327 32-32s-14.327-32-32-32h-768c-17.673 0-32 14.327-32 32zM96 448c0 17.673 14.327 32 32 32h768c17.673 0 32-14.327 32-32s-14.327-32-32-32h-768c-17.673 0-32 14.327-32 32zM96 234.667c0 17.673 14.327 32 32 32h768c17.673 0 32-14.327 32-32s-14.327-32-32-32h-768c-17.673 0-32 14.327-32 32z" />
<glyph unicode="&#xe917;" glyph-name="moneys" d="M801.178 673.376l0.055-0.261 0.058-0.259c3.482-15.093 5.11-31.681 5.11-50.776v-219.733c0-62.454-17.76-104.253-46.172-130.642-28.645-26.597-70.789-40.025-124.495-40.025h-375.040c-18.218 0-35.275 1.621-50.867 5.13l-0.522 0.116-0.528 0.085c-9.292 1.488-18.431 4.123-27.090 7.27-28.791 10.762-51.289 28.307-66.79 53.429-15.63 25.327-24.871 59.546-24.871 104.636v219.733c0 62.454 17.758 104.255 46.173 130.64 28.644 26.598 70.79 40.026 124.493 40.026h374.613c45.548 0 82.869-9.676 110.565-28.814 27.324-18.882 46.889-48.067 55.306-90.557zM203.947 398.933c26.919 0 49.067 22.149 49.067 49.067v128c0 26.918-22.148 49.067-49.067 49.067s-49.067-22.149-49.067-49.067v-128c0-26.918 22.148-49.067 49.067-49.067zM318.293 512c0-71.718 57.989-129.707 129.707-129.707s129.707 57.989 129.707 129.707c0 71.718-57.989 129.707-129.707 129.707s-129.707-57.989-129.707-129.707zM691.627 398.933c26.918 0 49.067 22.149 49.067 49.067v128c0 26.918-22.149 49.067-49.067 49.067s-49.067-22.149-49.067-49.067v-128c0-26.918 22.149-49.067 49.067-49.067zM951.467 494.080v-219.733c0-131.413-75.093-188.16-188.16-188.16h-374.613c-32 0-60.587 4.693-85.333 14.080-20.053 7.253-37.547 17.92-51.627 31.573-7.68 7.253-1.707 18.773 8.96 18.773h374.613c157.867 0 251.733 93.867 251.733 251.307v220.16c0 10.24 11.52 16.64 18.773 8.96 29.013-30.72 45.653-75.52 45.653-136.96z" />
<glyph unicode="&#xe918;" glyph-name="money-time" d="M128.725 123.914v-0.003l0.057-0.092c9.188-15.094 25.492-23.552 41.885-23.552 7.907 0 17.26 1.785 25.756 7.328l32.101 19.429c27.334 16.323 44.543 46.626 44.543 78.63v39.68c0 26.918-22.148 49.067-49.067 49.067-27.066 0-49.067-22.296-49.067-49.493v-35.922l-29.211-17.681c-23.726-13.937-30.668-44.605-16.997-67.389zM59.733 192c0 84.869 68.732 153.6 153.6 153.6s153.6-68.731 153.6-153.6c0-84.869-68.732-153.6-153.6-153.6s-153.6 68.731-153.6 153.6zM725.333 789.333h-426.667c-128 0-213.333-64-213.333-213.333v-151.893c0-15.787 16.213-25.6 30.293-19.2 41.813 19.2 90.027 26.453 140.8 17.493 112.213-20.053 194.56-124.16 191.573-238.080-0.427-17.92-2.987-35.413-7.68-52.48-3.413-13.227 7.253-25.6 20.907-25.6h264.107c128 0 213.333 64 213.333 213.333v256.427c0 149.333-85.333 213.333-213.333 213.333zM512 341.333c-58.88 0-106.667 47.787-106.667 106.667s47.787 106.667 106.667 106.667c58.88 0 106.667-47.787 106.667-106.667s-47.787-106.667-106.667-106.667zM821.333 362.667c0-17.493-14.507-32-32-32s-32 14.507-32 32v170.667c0 17.493 14.507 32 32 32s32-14.507 32-32v-170.667z" />
<glyph unicode="&#xe919;" glyph-name="notification" d="M825.173 341.76l-42.667 70.827c-8.96 15.787-17.067 45.653-17.067 63.147v107.947c0 100.267-58.88 186.88-143.787 227.413-22.187 39.253-63.147 63.573-110.080 63.573-46.507 0-88.32-25.173-110.507-64.853-83.2-41.387-140.8-127.147-140.8-226.133v-107.947c0-17.493-8.107-47.36-17.067-62.72l-43.093-71.253c-17.067-28.587-20.907-60.16-10.24-89.173 10.24-28.587 34.56-50.773 66.133-61.44 82.773-28.16 169.813-41.813 256.853-41.813s174.080 13.653 256.853 41.387c29.867 9.813 52.907 32.427 64 61.867s8.107 61.867-8.533 89.173zM512 49.778c-22.557 0-44.789 7.902-61.972 21.914 20.684-1.53 41.712-2.429 62.825-2.429 20.642 0 41.198 0.887 61.417 2.406-17.12-13.71-38.787-21.891-62.271-21.891z" />
<glyph unicode="&#xe91a;" glyph-name="people" d="M748.674 645.587c-3.468 0.373-6.946 0.373-10.414 0-56.289 2.485-100.82 48.822-100.82 105.773 0 58.453 47.439 106.24 106.24 106.24 58.433 0 106.209-47.407 106.24-106.184-0.393-57.031-44.991-103.345-101.246-105.829zM887.040 332.8c-47.787-32-114.773-43.947-176.64-35.84 16.213 34.987 24.747 73.813 25.173 114.773 0 42.667-9.387 83.2-27.307 118.613 63.147 8.533 130.133-3.413 178.347-35.413 67.413-44.373 67.413-117.333 0.427-162.133zM274.773 628.48c2.987 0.427 5.973 0.427 8.96 0 66.133 2.133 118.613 56.32 118.613 122.88 0 68.267-55.040 123.307-123.307 123.307-67.84 0-122.88-55.040-122.88-123.307 0-66.56 52.48-120.747 118.613-122.88zM279.467 411.733c0-41.387 8.96-80.64 25.173-116.053-60.16-6.4-122.88 6.4-168.96 36.693-67.413 44.8-67.413 117.76 0 162.56 45.653 30.72 110.080 43.093 170.667 36.267-17.493-35.84-26.88-76.373-26.88-119.467zM517.12 282.88c-3.413 0.427-7.253 0.427-11.093 0-78.507 2.56-141.227 66.987-141.227 146.347 0.427 81.067 65.707 146.773 147.2 146.773 81.067 0 146.773-65.707 146.773-146.773-0.427-79.36-62.72-143.787-141.653-146.347zM378.453 194.56c-64.427-43.093-64.427-113.92 0-156.587 73.387-49.067 193.707-49.067 267.093 0 64.427 43.093 64.427 113.92 0 156.587-72.96 49.067-193.28 49.067-267.093 0z" />
<glyph unicode="&#xe91b;" glyph-name="printer" d="M714.665 629.333h-405.331c-17.494 0-32 14.506-32 32v85.334c0 109.226 50.773 160 160 160h149.331c109.23 0 160-50.774 160-160v-85.334c0-17.494-14.505-32-32-32zM341.334 693.333h341.331v53.334c0 72.533-23.465 96-96 96h-149.331c-72.534 0-96-23.467-96-96v-53.334zM554.665-10.665h-85.331c-103.254 0-160 56.745-160 160v170.665c0 17.495 14.506 32 32 32h341.331c17.495 0 32-14.505 32-32v-170.665c0-103.255-56.745-160-160-160zM373.334 288v-138.665c0-67.415 28.586-96 96-96h85.331c67.415 0 96 28.585 96 96v138.665h-277.331zM768 160h-85.335c-17.49 0-32 14.505-32 32v96h-277.331v-96c0-17.495-14.507-32-32-32h-85.334c-103.254 0-160 56.745-160 160v213.334c0 103.254 56.746 160 160 160h512c103.255 0 160-56.746 160-160v-213.334c0-103.255-56.745-160-160-160zM714.665 224h53.335c67.415 0 96 28.585 96 96v213.334c0 67.414-28.585 96-96 96h-512c-67.414 0-96-28.586-96-96v-213.334c0-67.415 28.586-96 96-96h53.334v96c0 17.495 14.506 32 32 32h341.331c17.495 0 32-14.505 32-32v-96zM725.335 288h-426.669c-17.493 0-32 14.505-32 32s14.507 32 32 32h426.669c17.49 0 32-14.505 32-32s-14.51-32-32-32zM426.666 458.666h-128c-17.493 0-32 14.506-32 32s14.507 32 32 32h128c17.494 0 32-14.507 32-32s-14.506-32-32-32z" />
<glyph unicode="&#xe91c;" glyph-name="profile-2user" d="M384 874.667c-111.787 0-202.667-90.88-202.667-202.667 0-109.653 85.76-198.4 197.547-202.24 3.413 0.427 6.827 0.427 9.387 0 0.853 0 1.28 0 2.133 0 0.427 0 0.427 0 0.853 0 109.227 3.84 194.987 92.587 195.413 202.24 0 111.787-90.88 202.667-202.667 202.667zM176.767 95.662l-0.047 0.031c-50.311 33.543-76.027 77.391-76.027 122.761 0 45.384 25.728 89.651 76.443 123.607 56.587 37.441 131.619 56.661 207.397 56.661 75.8 0 150.61-19.231 206.746-56.655 50.19-33.461 75.633-77.295 76.029-122.829-0.024-45.786-25.757-89.624-76.083-123.583-56.347-37.83-131.352-57.255-207.223-57.255-75.877 0-150.883 19.429-207.233 57.262zM852.907 646.827c6.827-82.773-52.053-155.307-133.547-165.12-0.427 0-0.427 0-0.853 0h-1.28c-2.56 0-5.12 0-7.253-0.853-41.387-2.133-79.36 11.093-107.947 35.413 43.947 39.253 69.12 98.133 64 162.133-2.987 34.56-14.933 66.133-32.853 93.013 16.213 8.107 34.987 13.227 54.187 14.933 83.627 7.253 158.293-55.040 165.547-139.52zM938.24 252.16c-3.413-41.387-29.867-77.227-74.24-101.547-42.667-23.467-96.427-34.56-149.76-33.28 30.72 27.733 48.64 62.293 52.053 98.987 4.267 52.907-20.907 103.68-71.253 144.213-28.587 22.613-61.867 40.533-98.133 53.76 94.293 27.307 212.907 8.96 285.867-49.92 39.253-31.573 59.307-71.253 55.467-112.213z" />
<glyph unicode="&#xe91d;" glyph-name="quote" d="M373.797 136.11h-254.408l171.236 623.786h195.698l-112.526-623.786zM792.101 136.11h-254.407l171.236 623.786h195.698l-112.526-623.786z" />
<glyph unicode="&#xe91e;" glyph-name="quote-down" d="M345.174 463.786h-200.108c3.413 199.254 42.667 232.108 165.12 304.641 14.079 8.533 18.773 26.453 10.239 40.96-8.532 14.080-26.452 18.773-40.959 10.24-144.213-85.333-194.56-137.387-194.56-385.707v-229.974c0-72.96 59.307-131.84 131.84-131.84h127.999c75.094 0 131.84 56.749 131.84 131.84v128c0.429 75.094-56.32 131.84-131.411 131.84zM806.826 463.786h-200.106c3.414 199.254 42.666 232.108 165.12 304.641 14.080 8.533 18.774 26.453 10.24 40.96-8.534 14.080-26.454 18.773-40.96 10.24-144.214-85.333-194.56-137.387-194.56-385.707v-229.974c0-72.96 59.306-131.84 131.84-131.84h128c75.52 0 132.266 56.749 132.266 131.84v128c0 75.094-56.746 131.84-131.84 131.84z" />
<glyph unicode="&#xe91f;" glyph-name="refresh" d="M892.145 792.062c13.793 13.824 29.455 25.858 29.455 39.938s-11.438 25.6-25.595 25.6h-255.928c-3.092 0-25.59 0-25.59-25.6v-256c0-14.080 11.464-25.6 25.59-25.6 14.157 0 24.008 13.567 34.913 24.319l71.122 71.169c45.297-53.504 72.888-122.367 72.888-197.887 0-169.728-137.513-307.2-307.116-307.2-169.604 0-307.113 137.472-307.113 307.2 0 152.064 110.74 278.27 255.928 302.59v103.425c-201.953-25.088-358.299-197.119-358.299-406.015 0-226.304 183.347-409.6 409.485-409.6s409.485 183.296 409.485 409.6c0 103.936-38.799 198.398-102.548 270.59l73.324 73.472z" />
<glyph unicode="&#xe920;" glyph-name="school" d="M700.549 557.887v-366.743c0-14.136 11.464-25.6 25.6-25.6h95.283c14.136 0 25.6 11.464 25.6 25.6v366.743c0 14.138-11.464 25.6-25.6 25.6h-95.283c-14.136 0-25.6-11.462-25.6-25.6zM821.432 557.887v-366.743h-95.283v366.743h95.283zM578.299 557.887v-366.743c0-14.136 11.464-25.6 25.6-25.6h93.486c14.136 0 25.6 11.464 25.6 25.6v366.743c0 14.138-11.464 25.6-25.6 25.6h-93.486c-14.136 0-25.6-11.462-25.6-25.6zM697.385 557.887v-366.743h-93.486v366.743h93.486zM522.793 812.856l-338.875-145.197c-9.414-4.033-15.518-13.289-15.518-23.531v-57.47c0-14.139 11.462-25.6 25.6-25.6h677.752c14.136 0 25.6 11.461 25.6 25.6v57.47c0 10.242-6.103 19.498-15.519 23.531l-338.877 145.197c-6.436 2.759-13.722 2.759-20.163 0zM871.752 644.128v-57.47h-677.752v57.47l338.874 145.197 338.877-145.197zM502.564 679.375c0 16.481 13.363 29.842 29.844 29.842 16.471 0 29.829-13.348 29.839-29.82-0.020-16.48-13.373-29.839-29.86-29.865-16.471 0.010-29.824 13.368-29.824 29.843zM587.848 679.375c0 30.621-24.822 55.442-55.439 55.442-30.623 0-55.444-24.823-55.444-55.442s24.823-55.443 55.444-55.443c30.602 0.036 55.409 24.838 55.439 55.443zM145.050 162.386v-55.731c0-14.136 11.462-25.6 25.6-25.6h715.504c14.136 0 25.6 11.464 25.6 25.6v55.731c0 14.141-11.464 25.6-25.6 25.6h-715.504c-14.138 0-25.6-11.459-25.6-25.6zM886.154 162.386v-55.731h-715.504v55.731h715.504zM218.7 557.9v-366.739c0-14.141 11.462-25.6 25.6-25.6h86.292c14.139 0 25.6 11.459 25.6 25.6v366.739c0 14.139-11.461 25.6-25.6 25.6h-86.292c-14.138 0-25.6-11.461-25.6-25.6zM330.592 557.9v-366.739h-86.292v366.739h86.292zM333.843 557.887v-366.743c0-14.136 11.461-25.6 25.6-25.6h93.483c14.138 0 25.6 11.464 25.6 25.6v366.743c0 14.138-11.462 25.6-25.6 25.6h-93.483c-14.139 0-25.6-11.462-25.6-25.6zM452.926 557.887v-366.743h-93.483v366.743h93.483zM456.050 557.887v-366.743c0-14.136 11.461-25.6 25.6-25.6h93.485c14.136 0 25.6 11.464 25.6 25.6v366.743c0 14.138-11.464 25.6-25.6 25.6h-93.485c-14.139 0-25.6-11.462-25.6-25.6zM575.135 557.887v-366.743h-93.485v366.743h93.485z" />
<glyph unicode="&#xe921;" glyph-name="search-icon" d="M455.111 846.222c-188.513 0-341.333-152.82-341.333-341.333s152.82-341.333 341.333-341.333c188.513 0 341.333 152.821 341.333 341.333s-152.821 341.333-341.333 341.333zM0 504.889c0 251.351 203.76 455.111 455.111 455.111s455.111-203.76 455.111-455.111c0-251.352-203.759-455.111-455.111-455.111s-455.111 203.759-455.111 455.111zM699.329 260.671c22.215 22.215 58.237 22.215 80.452 0l227.556-227.556c22.215-22.215 22.215-58.237 0-80.452s-58.237-22.215-80.452 0l-227.556 227.556c-22.215 22.215-22.215 58.237 0 80.452z" />
<glyph unicode="&#xe922;" glyph-name="share" d="M879.785 402.345c-16.21 0-29.865 12.375-32 28.59-10.24 96.425-62.29 183.892-142.505 239.358-14.505 10.24-17.92 29.867-8.105 44.374 10.24 14.506 30.29 17.92 44.37 8.106 95.575-66.133 157.015-170.24 169.39-285.014 1.705-17.495-10.67-33.28-28.59-35.415-0.425 0-1.705 0-2.56 0zM148.906 400.215c-1.28 0-2.133 0-3.413 0-17.494 2.13-30.294 17.92-28.587 35.41 11.52 114.775 72.534 218.455 166.827 285.442 14.506 10.24 34.56 6.826 44.8-7.68s6.826-34.56-7.68-44.8c-79.36-55.894-130.56-143.36-140.374-239.787-1.28-16.215-15.36-28.585-31.574-28.585zM514.56-4.695c-63.146 0-123.306 14.51-179.626 42.67-15.787 8.105-22.187 27.305-14.080 43.090 8.106 15.79 27.306 22.19 43.093 14.080 92.16-46.505 203.094-47.36 296.109-2.56 15.785 7.68 34.985 0.855 42.665-14.93 7.68-15.79 0.855-34.99-14.935-42.67-54.61-26.45-112.64-39.68-173.225-39.68zM514.56 599.894c-83.2 0-150.614 67.414-150.614 150.614s67.414 150.614 150.614 150.614c83.2 0 150.615-67.414 150.615-150.614s-67.84-150.614-150.615-150.614zM514.56 836.694c-47.786 0-86.614-38.826-86.614-86.613s38.827-86.614 86.614-86.614c47.785 0 86.615 38.826 86.615 86.614s-39.255 86.613-86.615 86.613zM206.080 78.080c-83.2 0-150.614 67.415-150.614 150.615 0 82.77 67.414 150.61 150.614 150.61s150.614-67.41 150.614-150.61c0-82.775-67.414-150.615-150.614-150.615zM206.080 315.305c-47.786 0-86.614-38.825-86.614-86.61 0-47.79 38.827-86.615 86.614-86.615s86.614 38.825 86.614 86.615c0 47.785-38.827 86.61-86.614 86.61zM817.92 78.080c-83.2 0-150.615 67.415-150.615 150.615 0 82.77 67.415 150.61 150.615 150.61s150.615-67.41 150.615-150.61c-0.43-82.775-67.84-150.615-150.615-150.615zM817.92 315.305c-47.785 0-86.615-38.825-86.615-86.61 0-47.79 38.83-86.615 86.615-86.615s86.615 38.825 86.615 86.615c-0.43 47.785-38.83 86.61-86.615 86.61z" />
<glyph unicode="&#xe923;" glyph-name="sms" d="M725.335 810.666h-426.669c-128 0-213.333-64-213.333-213.334v-298.668c0-149.33 85.333-213.33 213.333-213.33h426.669c128 0 213.33 64 213.33 213.33v298.668c0 149.334-85.33 213.334-213.33 213.334zM745.385 550.826l-133.545-106.666c-28.16-22.615-64-33.705-99.84-33.705s-72.106 11.090-99.84 33.705l-133.546 106.666c-13.654 11.093-15.787 31.573-5.12 45.226 11.093 13.654 31.146 16.214 44.8 5.12l133.546-106.666c32.427-26.027 87.465-26.027 119.895 0l133.545 106.666c13.655 11.094 34.135 8.96 44.8-5.12 11.095-13.654 8.96-34.134-4.695-45.226z" />
<glyph unicode="&#xe924;" glyph-name="sms-tracking" d="M176.662 724.826c-24.851-23.075-43.329-61.974-43.329-127.492 0-26.51-21.49-48-48-48s-48 21.49-48 48c0 83.815 24.189 151.583 74.005 197.841 49.172 45.66 115.97 63.492 187.329 63.492h426.664c71.36 0 138.157-17.832 187.328-63.492 49.818-46.258 74.010-114.026 74.010-197.841v-298.665c0-83.814-24.192-151.584-74.010-197.843-49.171-45.658-115.968-63.494-187.328-63.494h-426.664c-26.51 0-48 21.491-48 48 0 26.515 21.49 48 48 48h426.664c56.646 0 96.512 14.17 122.010 37.843 24.845 23.078 43.328 61.978 43.328 127.494v298.665c0 65.518-18.483 104.417-43.328 127.492-25.498 23.674-65.363 37.841-122.010 37.841h-426.664c-56.642 0-96.511-14.167-122.005-37.841zM762.842 605.956c16.544-20.714 13.158-50.917-7.552-67.461l-133.606-106.715c-61.444-48.916-158.349-48.916-219.793 0l-0.118 0.095-133.119 106.667c-20.687 16.577-24.020 46.785-7.444 67.473s46.785 24.020 67.473 7.444l133.002-106.572c0.016-0.013-0.017 0.013 0 0 26.45-21.011 73.742-21.044 100.18-0.021 0.009 0.007-0.008-0.007 0 0l133.516 106.64c20.71 16.544 50.912 13.164 67.462-7.549zM37.333 256c0 26.509 21.49 48 48 48h256c26.51 0 48-21.491 48-48s-21.49-48-48-48h-256c-26.51 0-48 21.491-48 48zM37.333 426.667c0 26.51 21.49 48 48 48h128c26.51 0 48-21.49 48-48s-21.49-48-48-48h-128c-26.51 0-48 21.491-48 48z" />
<glyph unicode="&#xe925;" glyph-name="star" d="M759.808 553.582v-0.006l109.358-18.012c0.006-0.001 0.011-0.002 0.011-0.002 29.855-4.948 38.446-16.468 40.266-22.157 1.843-5.745 1.513-20.261-19.945-41.923-0.017-0.014-0.028-0.028-0.046-0.043l-84.821-84.818c-11.31-11.315-18.87-26.465-23.023-40.994-4.153-14.541-5.769-31.528-2.065-47.417 0.006-0.017 0.011-0.034 0.017-0.051l24.303-104.909c9.017-38.866-0.438-51.513-3.573-53.806-3.129-2.281-18.022-7.452-52.281 12.982l-0.040 0.028-101.894 60.535c-14.7 8.852-32.37 12.356-48.316 12.356s-33.617-3.504-48.319-12.356l-101.827-60.501c-0.010-0.006-0.021-0.011-0.031-0.017-34.266-20.23-49.217-15.144-52.395-12.834-3.081 2.241-12.552 14.729-3.532 53.612l0.002 0.006 24.456 105.546 0.111 0.597c2.929 15.622 1.141 32.307-3.12 46.802-4.235 14.416-11.759 29.531-23.071 40.846l-84.907 84.904c-21.433 21.434-21.736 35.837-19.904 41.559 1.848 5.77 10.532 17.348 40.353 22.492l108.648 17.895c0.010 0.001 0.020 0.003 0.030 0.005 14.862 2.426 29.051 9.663 40.323 18.048 11.236 8.358 22.198 19.811 28.787 33.254l60.036 120.074c0.011 0.022 0.022 0.043 0.034 0.065 14.363 28.314 28.182 32.945 33.831 32.931 5.666-0.014 19.558-4.743 33.951-33.322 0.006-0.011 0.011-0.023 0.017-0.034l60.069-120.14c6.639-13.546 17.687-24.904 28.877-33.161 11.287-8.329 25.236-15.357 39.629-18.036zM341.333 714.667h-256c-17.493 0-32 14.507-32 32s14.507 32 32 32h256c17.493 0 32-14.507 32-32s-14.507-32-32-32zM213.333 117.333h-128c-17.493 0-32 14.507-32 32s14.507 32 32 32h128c17.493 0 32-14.507 32-32s-14.507-32-32-32zM128 416h-42.667c-17.493 0-32 14.507-32 32s14.507 32 32 32h42.667c17.493 0 32-14.507 32-32s-14.507-32-32-32z" />
<glyph unicode="&#xe926;" glyph-name="global-fill" d="M326.4 67.84c-1.28 0-2.986-0.855-4.266-0.855-82.774 40.96-150.186 108.8-191.574 191.575 0 1.28 0.854 2.985 0.854 4.265 52.054-15.36 105.814-26.88 159.146-35.84 9.387-53.76 20.48-107.090 35.84-159.145zM893.44 258.135c-42.24-84.91-112.64-153.6-198.4-194.99 16.215 54.19 29.865 108.8 38.825 163.84 53.76 8.96 106.67 20.48 158.72 35.84-0.425-1.705 0.855-3.41 0.855-4.69zM896.855 631.040c-53.76 16.213-107.95 29.44-162.99 38.826-8.96 55.040-22.185 109.654-38.825 162.986 88.32-42.24 159.575-113.493 201.815-201.813zM326.4 828.161c-15.36-52.053-26.453-104.96-35.413-158.72-55.040-8.533-109.654-22.186-163.84-38.4 41.386 85.76 110.080 156.16 194.986 198.4 1.28 0 2.986-1.28 4.266-1.28zM660.905 678.827c-98.985 11.094-198.825 11.094-297.812 0 10.666 58.454 24.32 116.907 43.52 173.227 0.854 3.413 0.426 5.973 0.854 9.386 33.706 8.106 68.266 13.226 104.533 13.226 35.841 0 70.825-5.12 104.105-13.226 0.43-3.414 0.43-5.974 1.28-9.386 19.2-56.747 32.855-114.774 43.52-173.227zM281.174 299.095c-58.88 10.665-116.906 24.32-173.226 43.52-3.414 0.85-5.974 0.425-9.386 0.85-8.107 33.71-13.227 68.27-13.227 104.535 0 35.839 5.12 70.826 13.227 104.106 3.413 0.426 5.973 0.426 9.386 1.28 56.746 18.773 114.346 32.853 173.226 43.52-10.666-98.987-10.666-198.826 0-297.811zM938.665 448c0-36.265-5.12-70.825-13.225-104.535-3.415-0.425-5.975 0-9.385-0.85-56.75-18.775-114.775-32.855-173.23-43.52 11.095 98.985 11.095 198.824 0 297.811 58.455-10.667 116.91-24.32 173.23-43.52 3.41-0.854 5.97-1.28 9.385-1.28 8.105-33.707 13.225-68.267 13.225-104.106zM660.905 217.175c-10.665-58.88-24.32-116.91-43.52-173.23-0.85-3.41-0.85-5.97-1.28-9.385-33.28-8.105-68.265-13.225-104.105-13.225-36.266 0-70.826 5.12-104.533 13.225-0.427 3.415 0 5.975-0.854 9.385-18.774 56.75-32.854 114.35-43.52 173.23 49.494-5.55 98.986-9.39 148.906-9.39s99.841 3.84 148.905 9.39zM672.568 287.432c-106.711-13.466-214.424-13.466-321.137 0-13.464 106.711-13.464 214.424 0 321.138 106.713 13.464 214.426 13.464 321.137 0 13.466-106.714 13.466-214.427 0-321.138z" />
<glyph unicode="&#xe927;" glyph-name="telegram" d="M259.197 457.334c137.439 59.878 229.087 99.357 274.943 118.429 130.928 54.458 158.131 63.917 175.866 64.234 3.898 0.066 12.618-0.902 18.269-5.485 4.768-3.869 6.080-9.098 6.71-12.768 0.627-3.667 1.408-12.029 0.787-18.56-7.094-74.547-37.795-255.456-53.414-338.95-6.608-35.331-19.622-47.178-32.221-48.336-27.376-2.518-48.166 18.093-74.685 35.475-41.494 27.2-64.934 44.134-105.213 70.675-46.547 30.675-16.371 47.533 10.157 75.085 6.941 7.21 127.571 116.931 129.904 126.886 0.294 1.245 0.563 5.885-2.192 8.336-2.758 2.448-6.826 1.61-9.763 0.944-4.16-0.944-70.448-44.758-198.861-131.44-18.816-12.922-35.859-19.216-51.126-18.886-16.835 0.365-49.215 9.52-73.287 17.344-29.525 9.597-52.991 14.672-50.947 30.97 1.064 8.49 12.755 17.174 35.073 26.048z" />
<glyph unicode="&#xe928;" glyph-name="twitter" d="M768 608c-19.2-9.6-38.4-12.8-60.8-16 22.4 12.8 38.4 32 44.8 57.6-19.2-12.8-41.6-19.2-67.2-25.6-19.2 19.2-48 32-76.8 32-67.2 0-118.4-64-102.4-128-86.4 3.2-163.2 44.8-217.6 108.8-28.8-48-12.8-108.8 32-140.8-16 0-32 6.4-48 12.8 0-48 35.2-92.8 83.2-105.6-16-3.2-32-6.4-48-3.2 12.8-41.6 51.2-73.6 99.2-73.6-38.4-28.8-96-44.8-150.4-38.4 48-28.8 102.4-48 160-48 195.2 0 304 163.2 297.6 313.6 22.4 12.8 41.6 32 54.4 54.4z" />
<glyph unicode="&#xe929;" glyph-name="user" d="M512 448.001c117.821 0 213.335 95.513 213.335 213.334s-95.514 213.333-213.335 213.333c-117.821 0-213.334-95.513-213.334-213.333s95.513-213.334 213.334-213.334zM512 341.335c-213.76 0-387.84-143.36-387.84-320 0-11.95 9.387-21.335 21.334-21.335h733.011c11.95 0 21.335 9.385 21.335 21.335 0 176.64-174.080 320-387.84 320z" />
<glyph unicode="&#xe92a;" glyph-name="clock" d="M512 874.666c-235.094 0-426.666-191.574-426.666-426.666 0-235.095 191.573-426.665 426.666-426.665 235.095 0 426.665 191.57 426.665 426.665 0 235.093-191.57 426.666-426.665 426.666zM697.6 295.68c-5.975-10.24-16.64-15.785-27.735-15.785-5.545 0-11.090 1.28-16.21 4.69l-132.27 78.935c-32.851 19.625-57.171 62.72-57.171 100.693v174.934c0 17.493 14.506 32 32 32 17.491 0 32.002-14.507 32.002-32v-174.934c0-15.36 12.8-37.973 26.025-45.653l132.265-78.935c15.36-8.96 20.48-28.585 11.095-43.945z" />
<glyph unicode="&#xe92b;" glyph-name="heart-fill" d="M701.44 827.733c-77.227 0-146.347-37.547-189.44-95.147-43.093 57.6-112.213 95.147-189.44 95.147-130.987 0-237.227-106.667-237.227-238.507 0-50.773 8.107-97.707 22.187-141.227 67.413-213.333 275.2-340.907 378.027-375.893 14.507-5.12 38.4-5.12 52.907 0 102.827 34.987 310.613 162.56 378.027 375.893 14.080 43.52 22.187 90.453 22.187 141.227 0 131.84-106.24 238.507-237.227 238.507z" />
<glyph unicode="&#xe92c;" glyph-name="star1" d="M585.808 810.234l75.093-150.187c10.24-20.907 37.547-40.96 60.587-44.8l136.107-22.613c87.040-14.507 107.52-77.653 44.8-139.947l-105.813-105.813c-17.92-17.92-27.733-52.48-22.187-77.227l30.293-130.987c23.893-103.68-31.147-143.787-122.88-89.6l-127.572 75.52c-23.040 13.653-61.013 13.653-84.48 0l-127.573-75.52c-91.307-54.187-146.773-13.653-122.88 89.6l30.293 130.987c5.547 24.747-4.267 59.307-22.187 77.227l-105.813 105.813c-62.293 62.293-42.24 125.44 44.8 139.947l136.107 22.613c22.613 3.84 49.92 23.893 60.16 44.8l75.093 150.187c40.96 81.493 107.52 81.493 148.052 0z" />
<glyph unicode="&#xe92d;" glyph-name="x" d="M83.664 876.392c16.662 16.663 43.677 16.663 60.34 0l796.393-796.389c16.663-16.663 16.663-43.679 0-60.342s-43.679-16.663-60.342 0l-796.39 796.391c-16.663 16.663-16.663 43.678 0 60.34zM940.345 876.392c16.663-16.662 16.663-43.677 0-60.34l-796.393-796.391c-16.662-16.663-43.678-16.663-60.34 0s-16.662 43.679 0 60.342l796.391 796.389c16.663 16.663 43.679 16.663 60.342 0z" />
<glyph unicode="&#xe92e;" glyph-name="arrow-right1" d="M581.739 740.928c18.745 18.745 49.137 18.745 67.88 0l258.989-258.987c8.998-9.002 14.061-21.211 14.061-33.941s-5.062-24.94-14.061-33.941l-258.989-258.987c-18.743-18.746-49.135-18.746-67.88 0s-18.745 49.139 0 67.885l225.045 225.043-225.045 225.046c-18.745 18.745-18.745 49.137 0 67.882zM101.333 448c0 26.509 21.491 48 48 48h718.078c26.509 0 48-21.491 48-48s-21.491-48-48-48h-718.078c-26.509 0-48 21.491-48 48z" />
<glyph unicode="&#xe92f;" glyph-name="money" horiz-adv-x="1215" d="M164.916 816.531c-36.914-34.277-61.722-89.962-61.722-177.524v-382.014c0-87.562 24.808-143.248 61.722-177.523 37.473-34.797 93.999-53.672 169.473-53.672h545.735c75.474 0 132.001 18.875 169.472 53.672 36.914 34.275 61.723 89.962 61.723 177.523v382.014c0 87.561-24.809 143.247-61.723 177.524-37.471 34.796-93.998 53.671-169.472 53.671h-545.735c-75.474 0-132-18.874-169.473-53.671zM108.201 877.608c58.031 53.886 137.938 75.942 226.188 75.942h545.735c88.25 0 168.157-22.056 226.187-75.942 58.589-54.405 88.357-135.154 88.357-238.601v-382.014c0-103.448-29.767-184.196-88.357-238.602-58.030-53.886-137.938-75.943-226.187-75.943h-545.735c-88.25 0-168.157 22.056-226.188 75.943-58.59 54.405-88.356 135.154-88.356 238.602v382.014c0 103.448 29.766 184.196 88.356 238.601zM607.256 570.047c-67.405 0-122.047-54.641-122.047-122.047s54.641-122.047 122.047-122.047c67.405 0 122.047 54.641 122.047 122.047s-54.641 122.047-122.047 122.047zM401.86 448c0 113.438 91.958 205.395 205.395 205.395s205.395-91.958 205.395-205.395c0-113.438-91.958-205.395-205.395-205.395s-205.395 91.958-205.395 205.395zM252.528 626.109c23.016 0 41.674-18.658 41.674-41.674v-272.87c0-23.016-18.658-41.674-41.674-41.674s-41.675 18.658-41.675 41.674v272.87c0 23.016 18.658 41.674 41.675 41.674zM961.984 626.109c23.016 0 41.674-18.658 41.674-41.674v-272.87c0-23.016-18.658-41.674-41.674-41.674s-41.674 18.658-41.674 41.674v272.87c0 23.016 18.658 41.674 41.674 41.674z" />
<glyph unicode="&#xe931;" glyph-name="whatsapp" horiz-adv-x="964" d="M35.137 448.001c0 245.813 200.932 446.745 446.745 446.745s446.747-200.932 446.747-446.745c0-245.815-200.933-446.748-446.747-446.748-73.546 0-147.054 18.637-210.604 52.754l-77.179-22.052c-78.433-22.408-151.505 48.935-130.979 127.886l21.35 82.113c-30.352 61.922-49.334 131.772-49.334 206.047zM481.882 804.392c-195.912 0-356.392-160.479-356.392-356.392 0-63.82 17.725-124.844 46.889-179.526 5.337-10.005 6.715-21.655 3.862-32.629l-25.674-98.744c-2.932-11.276 7.507-21.468 18.711-18.269l95.393 27.256c12.023 3.433 24.932 1.735 35.654-4.698 53.134-31.883 117.368-49.784 181.557-49.784 195.915 0 356.394 160.485 356.394 356.395 0 195.912-160.479 356.392-356.394 356.392zM366.147 598.588c-4.097 0-9.499-1.436-16.532-8.348l-0.456-0.449c-6.569-6.187-10.83-12.647-13.448-19.291l-0.063-0.159c-2.822-7.046-4.356-14.963-4.356-23.676 0-14.076 3.242-29.776 10.645-47.344 7.653-17.981 18.382-36.607 32.126-55.694 14.052-19.264 29.838-37.749 47.387-55.452 17.736-17.529 36.276-33.317 55.798-47.557 18.986-13.8 37.825-24.546 56.329-32.419 17.79-7.572 33.503-10.788 47.208-10.788 8.852 0 16.669 1.62 23.723 4.554l0.163 0.072c6.421 2.626 12.583 6.867 18.799 13.704 3.132 3.458 5.487 7.084 7.367 11.053 1.205 2.542 1.632 4.837 1.632 6.819 0 0.325-0.030 0.608-0.102 0.952-0.006 0.036-0.018 0.078-0.030 0.12l-59.653 42.294c-2.549 1.718-4.45 2.787-5.839 3.451-0.782-0.487-2.555-1.761-5.319-4.521l-0.141-0.141-13.708-13.507c-7.323-7.265-17.178-11.783-28.605-11.783-3.958 0-9.241 0.446-15.086 2.632l-0.65 0.247-0.638 0.271c-0.951 0.41-1.831 0.813-2.311 1.030l-0.137 0.066-0.357 0.163-1.261 0.5-1.417 0.753c-8.78 4.639-18.405 11.539-28.708 20.243-10.375 8.796-20.404 18.244-30.418 28.059l-0.406 0.398c-9.95 10.126-19.064 20.188-27.515 29.939l-0.219 0.253c-8.496 10.026-15.6 19.591-20.283 28.164l-1.287 2.355-0.669 2.004c-0.001 0.001 0 0 0 0-0.017 0.039-0.036 0.084-0.058 0.136-0.22 0.518-0.711 1.671-1.198 2.968l-0.604 1.608-0.417 1.666c-0.858 3.426-1.445 7.168-1.445 11.471 0 10.096 3.542 20.215 11.465 28.271l14.018 14.549c2.076 2.074 3.468 3.767 4.343 5.005-0.636 1.314-1.658 3.084-3.325 5.396l-0.123 0.17-42.121 59.282c-0.013 0.007 0.016-0.007 0 0l-0.457 0.211c-0.204 0.098-0.784 0.298-1.641 0.298zM307.623 633.426c16.092 15.723 35.944 25.398 58.524 25.398 9.206 0 18.682-1.941 27.469-6.112 9.044-4.207 17.441-10.729 23.95-20.051l41.847-58.894c4.271-5.935 7.844-12.055 10.521-18.529 2.756-6.49 4.875-14.278 4.875-22.668 0-10.231-2.98-19.781-7.941-28.075-3.955-6.88-9.094-13.139-14.609-18.676l-3.22-3.342c1.855-2.434 4.092-5.224 6.76-8.376 7.746-8.933 15.901-17.918 24.656-26.838 9.444-9.251 18.207-17.473 26.945-24.883 3.215-2.715 6.062-4.967 8.55-6.819l3.092 3.047c5.513 5.495 11.995 10.945 19.445 14.978 8.088 4.74 17.314 7.667 27.641 7.667 7.846 0 15.327-1.685 22.429-4.586 6.508-2.658 12.554-6.18 18.2-10.012l0.5-0.342 59.778-42.384c8.505-5.918 15.691-13.804 20.221-24.078l0.205-0.469 0.193-0.476c2.909-7.273 5.054-15.615 5.054-25.295 0-11.029-2.464-22.106-7.415-32.575-4.277-9.035-9.879-17.691-17.233-25.793-11.499-12.661-24.871-22.516-40.49-28.925-14.643-6.078-30.325-9.144-46.781-9.144-23.215 0-46.955 5.457-70.789 15.595-23.119 9.836-45.901 22.938-68.175 39.135-22.054 16.083-42.962 33.894-62.828 53.543l-0.207 0.205c-19.67 19.83-37.495 40.681-53.444 62.555l-0.102 0.14c-15.902 22.074-29.039 44.611-38.748 67.435l-0.037 0.087c-9.958 23.615-15.397 47.294-15.397 70.793 0 15.834 2.8 31.381 8.643 45.997 6.034 15.277 15.443 28.95 27.921 40.764z" />
<glyph unicode="&#xe932;" glyph-name="youtube" d="M755.2 572.8c-6.4 22.4-22.4 38.4-44.8 44.8-38.4 9.6-201.6 9.6-201.6 9.6s-160 0-201.6-9.6c-22.4-6.4-38.4-22.4-44.8-44.8-6.4-41.6-6.4-124.8-6.4-124.8s0-83.2 9.6-124.8c6.4-22.4 22.4-38.4 44.8-44.8 38.4-9.6 201.6-9.6 201.6-9.6s160 0 201.6 9.6c22.4 6.4 38.4 22.4 44.8 44.8 9.6 41.6 9.6 124.8 9.6 124.8s0 83.2-12.8 124.8zM460.8 371.2v153.6l134.4-76.8-134.4-76.8z" />
<glyph unicode="&#xe933;" glyph-name="copy" d="M473.6-10.667h-179.2c-166.827 0-241.067 74.24-241.067 241.067v179.2c0 166.827 74.24 241.067 241.067 241.067h179.2c166.827 0 241.067-74.24 241.067-241.067v-179.2c0-166.827-74.24-241.067-241.067-241.067zM294.4 586.667c-132.267 0-177.067-44.8-177.067-177.067v-179.2c0-132.267 44.8-177.067 177.067-177.067h179.2c132.267 0 177.067 44.8 177.067 177.067v179.2c0 132.267-44.8 177.067-177.067 177.067h-179.2zM729.6 245.333h-46.933c-17.493 0-32 14.507-32 32v132.267c0 132.267-44.8 177.067-177.067 177.067h-132.267c-17.493 0-32 14.507-32 32v46.933c0 166.827 74.24 241.067 241.067 241.067h179.2c166.827 0 241.067-74.24 241.067-241.067v-179.2c0-166.827-74.24-241.067-241.067-241.067zM714.667 309.333h14.933c132.267 0 177.067 44.8 177.067 177.067v179.2c0 132.267-44.8 177.067-177.067 177.067h-179.2c-132.267 0-177.067-44.8-177.067-177.067v-14.933h100.267c166.827 0 241.067-74.24 241.067-241.067v-100.267z" />
<glyph unicode="&#xe934;" glyph-name="document-text" d="M674.135 865.706c-17.495 17.494-47.79 5.547-47.79-18.773v-148.907c0-62.293 52.91-113.92 117.335-113.92 40.535-0.426 96.855-0.426 145.065-0.426 24.32 0 37.12 28.586 20.055 45.654-61.44 61.866-171.52 173.226-234.665 236.373zM874.665 525.226h-123.305c-101.12 0-183.465 82.347-183.465 183.467v123.306c0 23.466-19.2 42.666-42.67 42.666h-180.905c-131.414 0-237.654-85.333-237.654-237.653v-378.029c0-152.32 106.24-237.65 237.654-237.65h335.36c131.415 0 237.655 85.33 237.655 237.65v223.575c0 23.466-19.2 42.666-42.67 42.666zM490.666 202.665h-170.666c-17.494 0-32 14.51-32 32 0 17.495 14.506 32 32 32h170.666c17.494 0 31.998-14.505 31.998-32 0-17.49-14.505-32-31.998-32zM576 373.335h-256c-17.494 0-32 14.505-32 32 0 17.49 14.506 32 32 32h256c17.495 0 32-14.51 32-32 0-17.495-14.505-32-32-32z" />
<glyph unicode="&#xe935;" glyph-name="arrow-down" horiz-adv-x="768" d="M58.7 365.301c18.745 18.745 49.137 18.745 67.882 0l257.419-257.416 257.42 257.416c18.746 18.745 49.133 18.745 67.878 0s18.746-49.135 0-67.88l-291.357-291.36c-9.002-9.005-21.211-14.061-33.941-14.061s-24.94 5.056-33.941 14.061l-291.36 291.36c-18.745 18.746-18.745 49.135 0 67.88zM384.001 904c26.509 0 48-21.491 48-48v-807.84c0-26.509-21.491-48-48-48s-48 21.491-48 48v807.84c0 26.509 21.491 48 48 48z" />
<glyph unicode="&#xe936;" glyph-name="teacher" d="M718.080 292.692c28.588 18.776 66.132-1.704 66.132-35.84v-55.040c0-54.184-42.24-112.212-93.012-129.28l-136.108-45.224c-23.892-8.108-62.72-8.108-86.184 0l-136.108 45.224c-51.2 17.068-93.014 75.096-93.014 129.28v55.468c0 33.708 37.547 54.188 65.707 35.84l87.895-57.172c33.704-22.616 76.372-33.708 119.040-33.708 42.664 0 85.332 11.092 119.040 33.708l86.612 56.744zM586.862 836.774l0.015-0.009 255.543-167.661c0.007-0.003 0.011-0.007 0.018-0.010 46.281-30.497 61.663-85.706 46.764-133.757l-0.819-2.648v-212.688c0-7.395-6.32-13.714-13.714-13.714s-13.714 6.32-13.714 13.714v164.451l-274.092-179.891c-19.408-12.76-46.208-19.712-74.010-19.712s-54.601 6.952-74.006 19.712l-0.062 0.040-256.841 167.245c-0.003 0.004-0.005 0.004-0.008 0.007-71.33 46.574-71.221 151.077-0.048 197.173l0.056 0.037 256.904 167.712c19.405 12.759 46.204 19.714 74.006 19.714s54.601-6.955 74.010-19.714z" />
<glyph unicode="&#xe937;" glyph-name="facebook" d="M768 874.667h-512c-94.257 0-170.667-76.41-170.667-170.667v-512c0-94.255 76.41-170.667 170.667-170.667h192v256h-149.333v128h149.333v85.333c0 94.257 76.412 170.667 170.667 170.667h106.667v-128h-106.667c-23.565 0-42.667-19.102-42.667-42.667v-85.333h149.333v-128h-149.333v-256h192c94.255 0 170.667 76.412 170.667 170.667v512c0 94.257-76.412 170.667-170.667 170.667z" />
<glyph unicode="&#xe938;" glyph-name="social-twitter" d="M652.198 789.333c-89.762 0-162.53-76.41-162.53-170.667 0-14.243 1.66-28.079 4.791-41.305-86.311 0-216.315 17.451-324.889 126.228-14.438 14.465-41.061 4.794-40.059-15.619 16.091-327.98 156.553-423.647 228.887-429.599-46.709-46.135-114.56-82.547-182.836-98.893-18.019-4.314-22.471-24.038-4.851-29.769 48.855-15.889 118.782-22.012 156.422-23.044 266.277 0 482.7 224.124 487.517 502.516 34.957 22.735 57.353 72.098 69.935 107.067 3.063 8.517-10.893 18.44-19.251 14.961-26.112-10.872-59.268-13.45-87.509-4.247-29.811 38.082-75.017 62.371-125.628 62.371z" />
<glyph unicode="&#xe939;" glyph-name="social-telegram" d="M154.663 488.435l679.628 297.155c31.957 13.974 66.59-13.218 61.137-48.009l-92.919-593.184c-5.743-36.638-50.564-50.654-75.738-23.676l-152.491 163.418c-29.909 32.051-32.252 81.374-5.521 116.177l107.669 140.195c6.157 8.015-3.563 18.558-11.895 12.904l-214.076-145.295c-36.329-24.657-80.408-34.799-123.703-28.463l-160.893 23.543c-44.075 6.447-52.078 67.358-11.199 85.235z" />
<glyph unicode="&#xe93a;" glyph-name="location-full" d="M879.785 599.466c-44.8 197.12-216.745 285.867-367.785 285.867 0 0 0 0-0.426 0-150.614 0-322.987-88.32-367.787-285.44-49.92-220.158 84.907-406.614 206.934-523.949 45.226-43.52 103.254-65.28 161.28-65.28s116.055 21.76 160.855 65.28c122.025 117.335 256.85 303.36 206.93 523.522zM512 385.705c-74.24 0-134.4 60.16-134.4 134.402 0 74.24 60.16 134.4 134.4 134.4s134.4-60.16 134.4-134.4c0-74.242-60.16-134.402-134.4-134.402z" />
</font>
</defs>
</svg>
